Pan-pot - live at Time Warp 2014, Mannheim, Germany [HD 720p] - 05-Apr-2014

starstarstarstarstar 4.9 out of 5 with 7 votes total(Log in to rate it)
save_alt Download Torrent


Format                                   : Flash Video
File size                                : 3.34 GiB
Duration                                 : 5h 6mn
Overall bit rate mode                    : Variable
Overall bit rate                         : 1 562 Kbps
Tagged date                              : UTC 2014-04-06 07:03:42
Tagging application                      : flvmeta 1.1.0
Video
Format                                   : AVC
Format/Info                              : Advanced Video Codec
Format profile                           : Main@L3.1
Format settings, CABAC                   : Yes
Format settings, ReFrames                : 2 frames
Format settings, GOP                     : M=1, N=12
Codec ID                                 : 7
Duration                                 : 5h 6mn
Bit rate mode                            : Variable
Bit rate                                 : 3 900 Kbps
Maximum bit rate                         : 8 600 Kbps
Width                                    : 1 280 pixels
Height                                   : 720 pixels
Display aspect ratio                     : 16:9
Frame rate mode                          : Constant
Frame rate                               : 25.000 fps
Color space                              : YUV
Chroma subsampling                       : 4:2:0
Bit depth                                : 8 bits
Scan type                                : Progressive
Bits/(Pixel*Frame)                       : 0.169
Stream size                              : 3.19 GiB (95%)
Audio
Format                                   : AAC
Format/Info                              : Advanced Audio Codec
Format profile                           : LC
Codec ID                                 : 10
Duration                                 : 5h 6mn
Bit rate                                 : 185 Kbps
Channel(s)                               : 2 channels
Channel positions                        : Front: L R
Sampling rate                            : 48.0 KHz
Compression mode                         : Lossy
Delay relative to video                  : 32ms
Stream size                              : 159 MiB (5%)
Find more music from Time Warp, Pan-Pot.

Comments. From Tribalmixes Community..

download some torrents then you can comment
blade999lightning Power User wrote on April 6th, 2014
I think i waited more from their set, but... It's ok! Nothing exceptional:)
kokastar Platinum User wrote on April 7th, 2014
:thankyou:

Great job, superb upload!!!
Top 20 Torrents (last 50 days)
  • » Hernan Cattaneo - Live Dia 2 Full Extended Set Cordoba 2018 (Part 1) - 06-Oct-2018
  • » Solomun B2B Tale Of Us - Live @ Exit Festival, mts Dance Arena (Novi Sad, Serbia) - 06-Jul-2019
  • » Hernan Cattaneo - Live Dia 2 Full Extended Set Cordoba 2018 (Part 2) - 06-Oct-2018
  • » Boris Brejcha - Live @ Grand Palais (Cercle, France) - 10-Jun-2019
  • » The Chemical Brothers & Four Tet - Essential Mix (BBC Radio 1) - 29-Jun-2019
  • » Hernan Cattaneo B2B Guy J - Live @ Stereo Montreal All Night Day Long (First 12 Hours- Part 1) - 15-Dec-2018
  • » Sasha - Last Night On Earth 050 - June 2019
  • » Tale Of Us - Live @ Junction 2 Festival (London) - 08-Jun-2019
  • » Hernan Cattaneo B2B Guy J - Live @ Stereo Montreal All Night Day Long (First 12 Hours- Part 2) - 15-Dec-2018
  • » ARTBAT - Essential Mix (BBC Radio 1) - 13-Jul-2019
  • » Charlotte de Witte - Live @ Awakenings (Amsterdam) - 30-Jun-2019
  • » Maceo Plex - Live @ Awakenings (Amsterdam) - 29-Jun-2019
  • » Satoshi Tomiie - Club der Visionaere Berlin - 27-Jun-2019
  • » Hernan Cattaneo - The Soundgarden Showcase (British Airways InFlight Radio) - 08-Jun-2019
  • » Joris Voorn - Live @ Awakenings (Amsterdam) - 29-Jun-2019
  • » Maceo Plex B2B Tale Of Us - Live @ Junction 2 Festival (United Kingdom) - 09-Jun-2018
  • » Fernando Ferreyra - Dreamers (Frisky Radio) - June 2019
  • » Adam Beyer - Live @ Awakenings (Amsterdam) - 30-Jun-2019
  • » John Digweed - Transitions 775 (Live at Glastonbury 2019 and Oliver Huntemann) - 05-Jul-2019
  • » Guy J - Balance Selections 100 - 05-Jul-2019