Pan-pot - live at Time Warp 2014, Mannheim, Germany [HD 720p] - 05-Apr-2014

starstarstarstarstar 4.9 out of 5 with 7 votes total(Log in to rate it)
save_alt Download Torrent


Format                                   : Flash Video
File size                                : 3.34 GiB
Duration                                 : 5h 6mn
Overall bit rate mode                    : Variable
Overall bit rate                         : 1 562 Kbps
Tagged date                              : UTC 2014-04-06 07:03:42
Tagging application                      : flvmeta 1.1.0
Video
Format                                   : AVC
Format/Info                              : Advanced Video Codec
Format profile                           : Main@L3.1
Format settings, CABAC                   : Yes
Format settings, ReFrames                : 2 frames
Format settings, GOP                     : M=1, N=12
Codec ID                                 : 7
Duration                                 : 5h 6mn
Bit rate mode                            : Variable
Bit rate                                 : 3 900 Kbps
Maximum bit rate                         : 8 600 Kbps
Width                                    : 1 280 pixels
Height                                   : 720 pixels
Display aspect ratio                     : 16:9
Frame rate mode                          : Constant
Frame rate                               : 25.000 fps
Color space                              : YUV
Chroma subsampling                       : 4:2:0
Bit depth                                : 8 bits
Scan type                                : Progressive
Bits/(Pixel*Frame)                       : 0.169
Stream size                              : 3.19 GiB (95%)
Audio
Format                                   : AAC
Format/Info                              : Advanced Audio Codec
Format profile                           : LC
Codec ID                                 : 10
Duration                                 : 5h 6mn
Bit rate                                 : 185 Kbps
Channel(s)                               : 2 channels
Channel positions                        : Front: L R
Sampling rate                            : 48.0 KHz
Compression mode                         : Lossy
Delay relative to video                  : 32ms
Stream size                              : 159 MiB (5%)
Find more music from Time Warp, Pan-Pot.

Comments. From Tribalmixes Community..

write feature-rich comment
blade999lightning Power User wrote on April 6th, 2014
I think i waited more from their set, but... It's ok! Nothing exceptional:)
kokastar Platinum User wrote on April 7th, 2014
:thankyou:

Great job, superb upload!!!