Carl Cox - live at Time Warp 2014, Mannheim, Germany [HD 720p] - 05-Apr-2014

starstarstarstarstar 5 out of 5 with 9 votes total(Log in to rate it)
save_alt Download Torrent


Format                                   : Flash Video
File size                                : 3.51 GiB
Duration                                 : 3h 12mn
Overall bit rate mode                    : Variable
Overall bit rate                         : 2 613 Kbps
Tagged date                              : UTC 2014-04-06 05:32:42
Tagging application                      : flvmeta 1.1.0
Video
Format                                   : AVC
Format/Info                              : Advanced Video Codec
Format profile                           : Main@L3.1
Format settings, CABAC                   : Yes
Format settings, ReFrames                : 2 frames
Format settings, GOP                     : M=1, N=12
Codec ID                                 : 7
Duration                                 : 3h 12mn
Bit rate mode                            : Variable
Bit rate                                 : 3 903 Kbps
Maximum bit rate                         : 8 600 Kbps
Width                                    : 1 280 pixels
Height                                   : 720 pixels
Display aspect ratio                     : 16:9
Frame rate mode                          : Constant
Frame rate                               : 25.000 fps
Color space                              : YUV
Chroma subsampling                       : 4:2:0
Bit depth                                : 8 bits
Scan type                                : Progressive
Bits/(Pixel*Frame)                       : 0.169
Stream size                              : 3.35 GiB (95%)
Audio
Format                                   : AAC
Format/Info                              : Advanced Audio Codec
Format profile                           : LC
Codec ID                                 : 10
Duration                                 : 3h 12mn
Bit rate                                 : 185 Kbps
Channel(s)                               : 2 channels
Channel positions                        : Front: L R
Sampling rate                            : 48.0 KHz
Compression mode                         : Lossy
Delay relative to video                  : 10ms
Stream size                              : 166 MiB (5%)
Find more music from Time Warp, Carl Cox.

Comments. From Tribalmixes Community..

download some torrents then you can comment
madazuluvip .:: TECHNO ::. wrote on April 6th, 2014
great torrent, thank you!!!
red6tormlightning Ba wrote on April 6th, 2014
:whistle:  :whistle:  Great upload - thank you sir!!!
blade999lightning Power User wrote on April 6th, 2014
Typical papa-Cox. Pity he played after Dettmann, and his set was overshadowed, some good funky house stuff in there.
Afrodynamic tribalmixr wrote on April 6th, 2014
great torrent, thank you!!!
kokastar Platinum User wrote on April 7th, 2014
Amazing upload, please, share more!!! :)
Top 20 Torrents (last 25 days)
  • » Solomun B2B Tale Of Us - Live @ Exit Festival, mts Dance Arena (Novi Sad, Serbia) - 06-Jul-2019
  • » The Chemical Brothers & Four Tet - Essential Mix (BBC Radio 1) - 29-Jun-2019
  • » Hernan Cattaneo B2B Guy J - Live @ Stereo Montreal All Night Day Long (First 12 Hours- Part 1) - 15-Dec-2018
  • » Hernan Cattaneo B2B Guy J - Live @ Stereo Montreal All Night Day Long (First 12 Hours- Part 2) - 15-Dec-2018
  • » ARTBAT - Essential Mix (BBC Radio 1) - 13-Jul-2019
  • » Charlotte de Witte - Live @ Awakenings (Amsterdam) - 30-Jun-2019
  • » Maceo Plex - Live @ Awakenings (Amsterdam) - 29-Jun-2019
  • » Hernan Cattaneo - The Soundgarden Showcase (British Airways InFlight Radio) - 08-Jun-2019
  • » Joris Voorn - Live @ Awakenings (Amsterdam) - 29-Jun-2019
  • » John Digweed - Transitions 775 (Live at Glastonbury 2019 and Oliver Huntemann) - 05-Jul-2019
  • » Guy J - Balance Selections 100 - 05-Jul-2019
  • » Adam Beyer - Live @ Awakenings (Amsterdam) - 30-Jun-2019
  • » Nick Warren - The Soundgarden Showcase (British Airways In-Flight Mix) - June 2019
  • » Carl Cox B2B Maceo Plex - Live @ Exit Festival, mts Dance Arena (Novi Sad, Serbia) - 04-Jul-2019
  • » Joseph Capriati - Live @ Awakenings (Amsterdam) - 30-Jun-2019
  • » Amelie Lens - Live @ Awakenings (Amsterdam) - 30-Jun-2019
  • » Dubfire - Live @ Kappa Futur Festival (Torino, Italy) [HQ] - 06-Jul-2019
  • » John Digweed - Transitions 776 (Guest Inner City) - 12-Jul-2019
  • » Kolsch - Live @ Awakenings (Amsterdam) - 29-Jun-2019
  • » Dubfire - Live @ The Viaduct (Los Angeles, USA) - 30-Jun-2019