Carl Cox - live at Time Warp 2014, Mannheim, Germany [HD 720p] - 05-Apr-2014

starstarstarstarstar 5 out of 5 with 8 votes total(Log in to rate it)
save_alt Download Torrent


Format                                   : Flash Video
File size                                : 3.51 GiB
Duration                                 : 3h 12mn
Overall bit rate mode                    : Variable
Overall bit rate                         : 2 613 Kbps
Tagged date                              : UTC 2014-04-06 05:32:42
Tagging application                      : flvmeta 1.1.0
Video
Format                                   : AVC
Format/Info                              : Advanced Video Codec
Format profile                           : Main@L3.1
Format settings, CABAC                   : Yes
Format settings, ReFrames                : 2 frames
Format settings, GOP                     : M=1, N=12
Codec ID                                 : 7
Duration                                 : 3h 12mn
Bit rate mode                            : Variable
Bit rate                                 : 3 903 Kbps
Maximum bit rate                         : 8 600 Kbps
Width                                    : 1 280 pixels
Height                                   : 720 pixels
Display aspect ratio                     : 16:9
Frame rate mode                          : Constant
Frame rate                               : 25.000 fps
Color space                              : YUV
Chroma subsampling                       : 4:2:0
Bit depth                                : 8 bits
Scan type                                : Progressive
Bits/(Pixel*Frame)                       : 0.169
Stream size                              : 3.35 GiB (95%)
Audio
Format                                   : AAC
Format/Info                              : Advanced Audio Codec
Format profile                           : LC
Codec ID                                 : 10
Duration                                 : 3h 12mn
Bit rate                                 : 185 Kbps
Channel(s)                               : 2 channels
Channel positions                        : Front: L R
Sampling rate                            : 48.0 KHz
Compression mode                         : Lossy
Delay relative to video                  : 10ms
Stream size                              : 166 MiB (5%)
Find more music from Time Warp, Carl Cox.

Comments. From Tribalmixes Community..

write feature-rich comment
madazuluvip .:: TECHNO ::. wrote on April 6th, 2014
great torrent, thank you!!!
red6tormlightning Ba wrote on April 6th, 2014
:whistle:  :whistle:  Great upload - thank you sir!!!
blade999lightning Power User wrote on April 6th, 2014
Typical papa-Cox. Pity he played after Dettmann, and his set was overshadowed, some good funky house stuff in there.
Afrodynamic tribalmixr wrote on April 6th, 2014
great torrent, thank you!!!
kokastar Platinum User wrote on April 7th, 2014
Amazing upload, please, share more!!! :)
Top 20 Torrents (last 10 days)
  • » The Chemical Brothers - Essential Mix (BBC Radio 1) - 13-Apr-2019
  • » Catz N Dogz - Essential Mix - 06-Apr-2019
  • » John Digweed - Transitions 763 (Guest Luca Donzelli & Mar-T) - 12-Apr-2019
  • » Dave Seaman - Radio Therapy Broadcast - April 2019
  • » Chris Liebing b2b Charlotte De Witte - Essential Mix Live at Miami Music Week - 28-Mar-2019
  • » Anthony Pappa - Selador Sessions #18 - 15-Apr-2019
  • » Sander Kleinenberg - The Deepest Mixtape In the Universe #30 (road trip to Coachella) - 13-Apr-2019
  • » Ben Klock - Live @ Time Warp 2019 (Mannheim, Germany) - 06-Apr-2019
  • » Diplo, DJ Snake, Gorgon City, Jauz, Kayzo, Nina Kraviz, Nora En Pure, Polo & Dan - Live at Coachella Festival 2019 Weekend 1 Day 1, 1080p Stream - 12-Apr-2019
  • » Bassnectar, CloZee & Four Tet - Live at Coachella Festival 2019 Weekend 1 Day 2, 1080p Stream - 13-Apr-2019
  • » Len Faki - Live @ Time Warp 2019 (Mannheim, Germany) - 06-Apr-2019
  • » Kolsch - Coachella 2019 - 19-Apr-2019
  • » Testpilot aka deadmau5 - Essential Mix - 23-Mar-2019
  • » Zedd, NGHTMRE, KAYTRANADA, Gesaffelstein & Dillon Francis - Live at Coachella Festival 2019 Weekend 1 Day 3, 1080p Stream - 14-Apr-2019
  • » The Martinez Brothers - Live @ Club Space (Miami Music Week, United States) - 01-Apr-2019
  • » Hernan Cattaneo - Resident 414 on Delta 90.3 FM - 13-Apr-2019
  • » Themba b2b Mele - Essential Mix Live at Miami Music Week - 28-Mar-2019
  • » Steve Lawler - When We Dip #107 - 16-Apr-2019
  • » Recondite - Live @ Time Warp 2019 (Mannheim, Germany) - 06-Apr-2019
  • » Amelie Lens - Coachella 2019 - 19-Apr-2019